18 Kasım 2011 Cuma

Rise of the Planet of the Apes (2011) DVDRip XviD-MAX

Bu torrentin ayrıntıları
Rise of the Planet of the Apes (2011) DVDRip XviD-MAX
Tür:
Video > Filmler Dosya Sayısı:
8 Boyut:
1.56 GiB (1680379704 Bytes)
Bilgi:
IMDB Ses dil(ler)i:
İngilizce Tag(s):
Rise of the Planet of the Apes 2011 DVDRip XviD MAX Kalite:
+58 / -2 (+56)
Gönderilen Veri:
2011-11-07 12:32:49 GMT Gönderen:
extremezone
Kaynak Sayısı:
12026 Eş Sayısı:
9482 Yorumlar
86
BU TORRENTİ İNDİR ( magnet link ) WATCH ONLINE FOR FREE ON TUBE+
http://www.hotimg.com/direct/X6WNVQU.jpg Screens: http://www.hotimg.com/direct/QSWutw8.jpg http://www.hotimg.com/direct/AbsJw6M.jpg http://www.hotimg.com/direct/eY49gdx.jpg http://www.hotimg.com/direct/Nyczuxp.jpg Alternative: http://www.postimg.com/image/52000/photo-51304.jpg http://www.postimg.com/image/52000/photo-51305.jpg http://www.postimg.com/image/52000/photo-51306.jpg http://www.postimg.com/image/52000/photo-51307.jpg ScreenCaps: http://www.postimg.com/image/52000/photo-51310.jpg Rise of the Planet of the Apes (2011) DVDRip XviD-MAXFormat : AVIFormat/Info : Audio Video InterleaveFormat profile : OpenDMLFile size : 1.55 GiBDuration : 1h 44mnOverall bit rate : 2 121 KbpsWriting application : VirtualDubMod 1.5.10.2(build 2542/release)Writing library : VirtualDubMod build 2542/releaseOriginal source form : MAX TORRENTZCopyright : SIGISMUNTVideoID : 0Format : MPEG-4 VisualFormat profile : AdvancedSimple@L5Format settings, BVOP : YesFormat settings, QPel : NoFormat settings, GMC : No warppointsFormat settings, Matrix : CustomCodec ID : XVIDCodec ID/Hint : XviDDuration : 1h 44mnBit rate : 1 732 KbpsWidth : 720 pixelsHeight : 304 pixelsDisplay aspect ratio : 2.35:1Frame rate : 23.976 fpsResolution : 24 bitsColorimetry : 4:2:0Scan type : ProgressiveBits/(Pixel*Frame) : 0.330Stream size : 1.27 GiB (82%)Writing library : XviD 58AudioID : 1Format : AC-3Format/Info : Audio Coding 3Codec ID : 2000Duration : 1h 44mnBit rate mode : ConstantBit rate : 384 KbpsChannel(s) : 6 channelsChannel positions : Front: L C R, Surround: L R, LFESampling rate : 48.0 KHzStream size : 288 MiB (18%)Alignment : Aligned on interleavesInterleave, duration : 64 ms (1.53 video frames)Interleave, preload duration : 192 msSource: DVD (perfect a/v/sync quality,sample included)This torrent is not seedbox supported,please seed it to the MAX http://www.imdb.com/title/tt1318514/ Note:If you have something to offer as early releases,seedboxes,links,accounts,etcplease contact us on piratepedia[@]msn/gmail.comor our website torentz 3xforum roRise of the Planet of the Apes (2011) DVDRip XviD-MAX Torrent Free Download http://thepiratebay.org/user/extremezone/0/7 How To Get Your Maxspeed (uTorrent)Torrent Client - Preferences - Bandwidth - Number of connections - Set aprox. 500 for each Torrent Client - Preferences - BiTorrent - Protocol Encryption - ForcedBandwidth Allocation - High (Set download/upload limit - Unlimited)Stop Other Active Torrents - Start downloading and wait for connections.Enjoy and Seed for at least 1:1 ratio. Don't forget to say thanks/leave reviews.Before downloading you should check/google search sample "release name""sample".Greets to all actual/future p2p/scene QUALITY groups and affiliate websites.Don't trust IMDb robot or bad ratings,always watch some trailers first.Ignore stupid comments/fake/mislabeled/no-DVDrips/CAM/TS/RAR uploads.Please spread this release/torrent to your friends/forums/etc.If you need translation subs visit somesubtitles sites.Report if you see online streaming or other spam links.Recommended movie player VLC PLAYER.
BU TORRENTİ İNDİR ( magnet link ) WATCH ONLINE FOR FREE ON TUBE+
Yorumlar
ttutteerr Tarih/Saat : 2011-11-15 17:38 CET:
A/V = 10
M = 8
The movie was much better than I anticipated. Definitely worth a watch. Thanks, extreme, for all the uploads!!
pookwell Tarih/Saat : 2011-11-16 03:22 CET:
Interesting story, liked the scene where the chimp is putting together a model of the Statue of Liberty.. Lol. andother references to the original movies. Good flick, kind of slow gettingoff the ground, watch it.
V 10
A 10
M 8
abirxp1 Tarih/Saat : 2011-11-16 21:18 CET:
I found much better version (HD). I searched yahoo for môôvilek.
immagical Tarih/Saat : 2011-11-17 00:37 CET:
@abirxp1.. why you keep trying to send people to spam sites that are full of shit,. this copy is just as good as any and the plus side of using extremezone is that you only get the movie you download and no other spam bullshit or viruses attached..

Rise of the Planet of the Apes (2011) DVDRip XviD-MAX 2011 kasım son yeni eski nerede ne zaman saat kaçta

Hiç yorum yok:

Yorum Gönder

Related Posts Plugin for WordPress, Blogger... bugün televizyonda hangi kanalda saat kaçta ne var hangi program saat kaçta yayın akışı tv rehberi diziler yarışmalar Sinema kuşağı